Most viewed

Software cute easter cupcakes and cookies Full Name: Partition Magic 8 Plus.Once created, the partitions can be re-sized without losing any of the data stored in them.There is a presentation to help.Google Play, vidMate, shareit - Transfer Share, whatsApp Messenger.There..
Read more
Toyota Ndcn-w55 User Manual nhzn W57 Manual Instruction.I pandemonium 1 pc game have japanese toyota prado 2007 which has an gps and stereo in japanese is a nhdt-w57, i would like to change it to english but don't.Keyword Ranking Analysis..
Read more

The psycho realm a war story book 2


the psycho realm a war story book 2

The Psycho Realm - A War Story (Book 1).
EAC extraction logfile from.The Psycho Realm / A War Story (Book 1).Wav Peak level 100.0 Track quality 100.0 Test CRC F735E344 Copy CRC F735E344 Track not opel corsa b workshop manual present in AccurateRip database Copy OK Track 10 Filename C:The Psycho Realm - A War Story (Book 1) - flac10 - The Psycho Realm - Street Platoons.Wav Peak level 100.0 Track quality 100.0 Test CRC AE1267D1 Copy CRC AE1267D1 Track not present in AccurateRip database Copy OK Track 7 Filename C:The Psycho Realm - A War Story (Book 1) - flac07 - The Psycho Realm - Earthquake Weather.Wav Peak level 100.0 Track quality.9 Test CRC F8B3E359 Copy CRC F8B3E359 Track not present in AccurateRip database Copy OK Track 12 Filename C:The Psycho Realm - A War Story (Book 1) - flac12 - The Psycho Realm - Show Of Force.Gap handling : Appended to previous track.Additional command line options : -8 -A tukey(0.25) -A gauss(0.1875) -b 4096 -V -T "artista" -T "titlet" -T "albumg" -T "datey" -T "tracknumbern" -T "genrem" s -sector-align.Delete leading and trailing silent blocks :.Read offset correction : 102, overread into Lead-In and Lead-Out :.Used drive : HL-DT-stdvd-ROM GDR8162B Adapter: 1 ID:.
Fill up missing offset samples with silence : Yes.
Selected bitrate : 192 kBit/s, quality : High, add ID3 tag :.
Wav Pre-gap length 0:00:02.00 Peak level.8 Track quality 100.0 Test CRC 39570F86 Copy CRC 39570F86 Track not present in AccurateRip database Copy OK Track 2 Filename C:The Psycho Realm - A War Story (Book 1) - flac02 - The Psycho Realm - Order Through.
Read mode : Secure, utilize accurate stream : Yes, defeat audio cache : Yes.
Wav Peak level.8 Track quality 100.0 Test CRC 5530C1BE Copy CRC 5530C1BE Track not present in AccurateRip database Copy OK Track 11 Filename C:The Psycho Realm - A War Story (Book 1) - flac11 - The Psycho Realm - Sick Dogs.Nicki Minaj Charlie Puth - Attention Imagine Dragons - Thunder Slash - Crucify the Dead (feat.Wav Peak level 100.0 Track quality 100.0 Test CRC D5CC9EDC Copy CRC D5CC9EDC Track not present in AccurateRip database Copy OK Track 9 Filename C:The Psycho Realm - A War Story (Book 1) - flac09 - The Psycho Realm - Moving Through Streets.Wav Peak level.6 Track quality 100.0 Test CRC D909993A Copy CRC D909993A Track not present in AccurateRip database Copy OK Track 4 Filename C:The Psycho Realm - A War Story (Book 1) - flac04 - The Psycho Realm - Enemy Of The State.Command line compressor : C:Program FilesExact Audio Copyflac.Wav Peak level.3 Track quality 100.0 Test CRC 7A87F24B Copy CRC 7A87F24B Track not present in AccurateRip database Copy OK Track 3 Filename C:The Psycho Realm - A War Story (Book 1) - flac03 - The Psycho Realm - Pico-Union District.




Sitemap